<?xml version="1.0" standalone="no"?>
<!DOCTYPE svg PUBLIC "-//W3C//DTD SVG 1.1//EN" "http://www.w3.org/Graphics/SVG/1.1/DTD/svg11.dtd" >
<svg xmlns="http://www.w3.org/2000/svg">
<metadata>Generated by IcoMoon</metadata>
<defs>
<font id="icomoon" horiz-adv-x="1024">
<font-face units-per-em="1024" ascent="832" descent="-192" />
<missing-glyph horiz-adv-x="1024" />
<glyph unicode="&#x20;" horiz-adv-x="512" d="" />
<glyph unicode="&#xe600;" glyph-name="arrow-right" d="M512 800.5c-265.373 0-480.5-215.127-480.5-480.5s215.127-480.5 480.5-480.5 480.5 215.127 480.5 480.5-215.127 480.5-480.5 480.5zM512-70.406c-215.615 0-390.406 174.792-390.406 390.406s174.792 390.406 390.406 390.406 390.406-174.792 390.406-390.406-174.792-390.406-390.406-390.406zM771.271 319.942c0-0.518-0.242-0.949-0.302-1.436-0.060-1.746-0.615-3.399-0.977-5.139-0.369-1.746-0.492-3.457-1.101-5.111-0.369-1.009-0.674-1.99-1.163-2.965-0.184-0.366-0.119-0.764-0.306-1.132-0.364-0.736-1.22-1.042-1.65-1.746-0.186-0.303-0.367-0.58-0.554-0.856-1.038-1.619-1.898-3.243-3.177-4.647-1.711-1.865-3.732-3.215-5.813-4.683-0.977-0.704-1.714-1.59-2.755-2.202-0.425-0.214-0.672-0.642-1.098-0.854l-248.339-170.13c-5.075-2.567-10.461-3.794-15.723-3.794-12.601 0-24.68 6.793-30.799 18.721-8.717 16.947-1.956 37.806 15.018 46.494l152.966 104.915h-338.26c-19.055 0-34.501 15.446-34.501 34.562 0 19.119 15.446 34.564 34.564 34.564h338.26l-153.026 104.946c-16.973 8.719-23.672 29.515-15.018 46.459 8.687 17.009 29.487 23.766 46.524 14.988l248.339-170.187c1.158-0.582 1.836-1.619 2.935-2.326 1.526-1.006 3.059-1.836 4.403-3.059 0.856-0.762 1.59-1.526 2.388-2.385 1.101-1.255 1.896-2.691 2.811-4.099 0.734-1.101 1.898-1.898 2.508-3.121 0.186-0.366 0.122-0.734 0.306-1.101 0.49-0.977 0.796-1.99 1.163-2.999 0.61-1.682 0.734-3.394 1.101-5.107 0.362-1.745 0.917-3.395 0.977-5.107 0.060-0.514 0.302-0.94 0.302-1.462z" />
<glyph unicode="&#xe601;" glyph-name="arrow-left" d="M710.927 353.154h-324.398l146.733 100.605c16.277 8.349 22.703 28.289 14.415 44.566s-28.289 22.764-44.626 14.355l-238.087-163.19c-1.021-0.541-1.622-1.441-2.583-2.042-1.622-1.021-3.243-1.982-4.685-3.303-0.661-0.601-1.261-1.261-1.922-1.922-1.141-1.261-1.922-2.644-2.883-4.084-0.721-1.081-1.802-1.802-2.403-3.003-0.18-0.42-0.18-0.901-0.36-1.321-0.36-0.721-0.601-1.502-0.901-2.342-0.601-1.682-0.841-3.363-1.201-5.105-0.36-1.802-0.901-3.484-0.961-5.286 0-0.36-0.18-0.721-0.18-1.081 0-0.42 0.18-0.721 0.241-1.141 0.060-1.682 0.541-3.243 0.841-4.925 0.36-1.862 0.601-3.663 1.261-5.406 0.3-0.841 0.541-1.622 0.901-2.342 0.18-0.42 0.121-0.901 0.36-1.261 0.42-0.841 1.261-1.141 1.742-1.862 1.141-1.862 2.102-3.724 3.544-5.286 1.562-1.682 3.424-2.883 5.285-4.204 0.060-0.060 0.119-0.119 0.18-0.119 0.961-0.661 1.622-1.502 2.583-2.102 0.42-0.241 0.661-0.661 1.081-0.841l238.087-163.131c4.925-2.463 10.090-3.663 15.136-3.663 12.072 0 23.665 6.487 29.551 17.959 8.349 16.277 1.862 36.278-14.415 44.566l-146.673 100.605h324.338c18.319 0 33.094 14.835 33.094 33.155s-14.775 33.154-33.094 33.154zM511.94 799.239c264.755 0 479.299-214.543 479.299-479.239 0-264.755-214.543-479.239-479.299-479.239-264.635 0-479.239 214.423-479.239 479.239 0 264.695 214.603 479.239 479.239 479.239zM511.94-69.325c215.144 0 389.445 174.181 389.445 389.325 0 215.084-174.301 389.445-389.445 389.445-215.022 0-389.325-174.362-389.325-389.445 0-215.144 174.301-389.325 389.325-389.325z" />
<glyph unicode="&#xe602;" glyph-name="calendar" d="M870.4 761.6h-46.080v-102.4h-163.84v102.4h-296.96v-102.4h-163.84v102.4h-46.080c-56.32 0-102.4-46.080-102.4-102.4v-614.4c0-56.32 46.080-102.4 102.4-102.4h716.8c56.32 0 102.4 46.080 102.4 102.4v614.4c0 56.32-46.080 102.4-102.4 102.4zM870.4 44.8h-716.8v409.6h716.8v-409.6zM317.44 864h-71.68v-174.080h71.68v174.080zM778.24 864h-71.68v-174.080h71.68v174.080z" />
<glyph unicode="&#xe603;" glyph-name="list" d="M819.2 371.2h-614.4c-28.262 0-51.2-22.938-51.2-51.2s22.938-51.2 51.2-51.2h614.4c28.314 0 51.2 22.938 51.2 51.2s-22.886 51.2-51.2 51.2zM204.8 473.6h614.4c28.314 0 51.2 22.938 51.2 51.2s-22.886 51.2-51.2 51.2h-614.4c-28.262 0-51.2-22.938-51.2-51.2s22.938-51.2 51.2-51.2zM819.2 166.4h-614.4c-28.262 0-51.2-22.886-51.2-51.2s22.938-51.2 51.2-51.2h614.4c28.314 0 51.2 22.886 51.2 51.2s-22.886 51.2-51.2 51.2z" />
<glyph unicode="&#xe604;" glyph-name="play" d="M512 800.5c-265.373 0-480.5-215.127-480.5-480.5s215.127-480.5 480.5-480.5 480.5 215.127 480.5 480.5-215.127 480.5-480.5 480.5zM512-70.406c-215.615 0-390.406 174.792-390.406 390.406s174.792 390.406 390.406 390.406 390.406-174.792 390.406-390.406-174.792-390.406-390.406-390.406zM391.875 530.219l360.375-210.219-360.375-210.219z" />
<glyph unicode="&#xe605;" glyph-name="file" d="M872.375 800.5h-720.75c-49.552 0-90.094-40.542-90.094-90.094v-780.813c0-49.552 40.542-90.094 90.094-90.094h720.75c49.552 0 90.094 40.542 90.094 90.094v780.813c0 49.552-40.542 90.094-90.094 90.094zM862.344-60.375h-700.688v760.75h700.688v-760.75zM301.781 380.062h420.438v-60.063h-420.438v60.063zM301.781 259.938h420.438v-60.063h-420.438v60.063zM301.781 139.812h420.438v-60.063h-420.438v60.063zM301.781 500.187h420.438v-60.063h-420.438v60.063z" />
<glyph unicode="&#xe606;" glyph-name="cog" d="M907.84 227.794c-50.421 87.329-20.099 199.242 67.713 250.092l-94.435 163.569c-26.982-15.817-58.351-24.886-91.826-24.886-100.92 0-182.729 82.348-182.729 183.932h-188.876c0.25-31.355-7.578-63.142-24.361-92.208-50.419-87.331-162.503-117.030-250.444-66.405l-94.433-163.569c27.188-15.458 50.725-38.091 67.464-67.080 50.338-87.192 20.189-198.882-67.296-249.844l94.435-163.569c26.888 15.669 58.107 24.639 91.407 24.639 100.601 0 182.2-81.827 182.722-182.964h188.872c-0.080 31.039 7.764 62.475 24.369 91.237 50.336 87.19 162.146 116.928 250.024 66.643l94.435 163.567c-27.010 15.453-50.389 38.006-67.039 66.846zM512 125.424c-107.463 0-194.58 87.113-194.58 194.578 0 107.463 87.115 194.578 194.58 194.578 107.463 0 194.576-87.115 194.576-194.578-0.002-107.465-87.113-194.578-194.576-194.578z" />
<glyph unicode="&#xe607;" glyph-name="checkmark" d="M864 704l-480-480-224 224-160-160 384-384 640 640z" />
<glyph unicode="&#xe608;" glyph-name="whistle" d="M979.49 465.545c-2.731 6.69-5.666 13.175-9.148 19.593-4.028 7.373-8.602 14.404-13.585 21.299-2.389 3.413-4.096 7.236-6.758 10.581-2.048 2.458-4.574 4.301-6.758 6.69-2.185 2.458-3.686 5.393-6.076 7.714-2.185 2.321-5.393 3.959-7.782 6.144-7.373 6.758-15.223 12.766-23.415 18.364-3.004 1.911-5.188 4.506-8.124 6.349-1.229 0.819-2.389 1.57-3.686 2.321l-186.095 104.789c-49.289 26.761-109.5 32.905-169.574 17.135-39.322-10.513-77.21-30.447-109.705-57.617l0.41-0.41c-1.707-1.092-3.413-2.185-4.779-3.482-3.823-3.209-7.509-6.622-13.107-12.015l-358.946-328.363c-0.819-0.683-0.956-1.843-1.707-2.526-1.229-1.57-2.935-2.662-4.096-4.369-1.229-1.843-1.502-4.028-2.321-6.007-0.546-1.502-5.052-3.755-5.393-5.325-1.297-5.325-3.277-11.196-1.911-16.384 0-0.273 5.53-21.231 5.598-21.299l33.382-104.653c2.185-8.397 7.441-15.701 14.814-20.275l178.449-111.753c1.161-0.683 2.389-0.273 3.755-0.887 1.707-0.887 3.072-2.458 5.052-3.004 2.731-0.819 5.461 0 8.26-0.137 2.321 0 4.233-0.41 6.554 0 1.024 0.137 2.116-0.341 3.072-0.068 5.53 1.434 10.65 4.233 14.95 8.329l197.086 188.621 86.63-53.999 1.434 0.273c30.652-17.749 65.058-30.515 96.802-33.314 28.672-2.526 57.89 0.137 86.426 7.578 41.438 10.923 81.306 31.881 115.985 61.645 4.915 4.301 8.806 9.421 13.449 13.926l1.911 0.273c4.301 4.164 7.305 8.943 11.264 13.175 5.598 6.281 11.059 12.561 16.111 19.046 5.734 7.441 10.718 15.223 15.701 23.074 4.096 6.69 8.055 13.175 11.674 20.070 4.301 8.329 7.851 16.725 11.264 25.19 2.799 6.895 5.325 13.79 7.646 20.753 2.594 8.67 4.574 17.067 6.485 25.873 1.502 7.168 2.799 14.473 3.686 21.709 1.024 8.397 1.434 16.589 1.57 24.917 0.205 7.578 0 15.019-0.478 22.596-0.546 7.987-1.707 15.633-3.072 23.484-1.434 7.373-2.935 14.677-4.983 21.914-2.116 7.782-4.847 15.087-7.919 22.46zM113.323 131.379l-32.905 112.64 193.741-113.323-1.57-100.489-159.266 101.171zM479.71 625.766l182.409-89.907c-32.905-20.685-62.737-55.091-93.252-77.483l-174.49 87.654z" />
<glyph unicode="&#xe609;" glyph-name="ban-chat" d="M512 577.706c-87.653 0-158.72-71.067-158.72-158.72 0-34.151 11.004-65.565 29.372-91.475l220.823 220.836c-25.886 18.342-57.324 29.359-91.476 29.359zM868.243 722.245h-712.522c-44.966 0-81.409-36.482-81.409-81.411v-454.674c0-44.929 36.444-81.411 81.409-81.411h135.769l0.036-187.034 207.675 187.034h369.078c45.001 0 81.409 36.481 81.409 81.411v454.674c-0.035 44.929-36.444 81.411-81.445 81.411zM512 207.359c-116.87 0-211.627 94.756-211.627 211.627 0 116.883 94.756 211.627 211.627 211.627s211.627-94.743 211.627-211.627c0-116.87-94.756-211.627-211.627-211.627zM420.524 289.614c25.885-18.342 57.325-29.347 91.476-29.347 87.652 0 158.72 71.069 158.72 158.72 0 34.151-11.006 65.578-29.372 91.476l-220.825-220.849z" />
<glyph unicode="&#xe60a;" glyph-name="logo" d="M105.588 587.202l521.162 148.921 313.984-415.367-332.52-416.881-140.22 49.305 123.324 295.952-218.781 93.186-5.55-43.881 135.932-72.759-110.464-313.477-204.026 151.571-105.168 34.425z" />
<glyph unicode="&#xe60b;" glyph-name="fr" d="M29.165 707.806h374.963v-25.683h-349.28v-349.28h219.834v-25.683h-219.834v-374.973h-25.683v775.622zM994.835-65.76h-213.679l-229.081 370.864h71.906c42.12 0 85.269 13.356 114.029 28.766 28.766 14.384 43.149 43.149 43.149 85.262 0 44.176-14.384 71.906-43.149 100.681-28.757 15.41-57.523 14.384-85.262 14.384h-200.324v170.531h185.95c114.029 0 198.26-14.384 242.435-56.504 57.531-44.176 86.298-113.001 86.298-199.297 0-72.942-15.419-115.055-43.149-143.828-14.384-43.156-71.906-71.915-115.055-85.278l185.932-285.576z" />
<glyph unicode="&#xe60c;" glyph-name="time" d="M512 732.903c-237.205 0-429.419-192.248-429.419-429.419s192.215-429.419 429.419-429.419c237.139 0 429.419 192.248 429.419 429.419s-192.248 429.419-429.419 429.419zM508.532-44.247c-191.554 0-346.839 155.285-346.839 346.839s155.285 346.839 346.839 346.839c191.521 0 346.839-155.285 346.839-346.839s-155.318-346.839-346.839-346.839zM608.785 282.641h-98.436v166.218c0 18.036-14.633 32.702-32.669 32.702-18.069 0-32.702-14.633-32.702-32.702v-198.887c0-18.069 14.633-32.669 32.702-32.669h131.105c18.069 0 32.702 14.6 32.702 32.669 0 18.036-14.633 32.669-32.702 32.669z" />
<glyph unicode="&#xe60d;" glyph-name="jersey" d="M775.040-121.925h-536.832l-6.891 3.435c-4.928 2.411-48.448 32.469-48.448 63.104v481.797c-7.488-1.835-15.808-3.968-22.144-5.568-28.331-7.168-35.627-8.853-42.411-8.853-18.837 0-58.112 8.96-71.851 42.88-16.491 40.725-28.715 118.507-28.715 131.093-5.696 51.243 24.405 67.499 42.837 72.704 87.424 30.080 142.123 45.035 230.997 66.965l7.851 0.96h99.2l7.317-23.104c13.717-43.264 73.131-54.699 102.656-54.699 33.407 0 99.37 21.141 105.492 51.243l5.376 26.56 113.664-0.96c26.283-6.485 39.829-12.181 51.84-17.216 10.092-4.245 18.838-7.936 36.16-12.587 13.504-3.648 28.288-7.275 43.584-11.051 32.342-7.979 65.749-16.235 97.003-26.496 28.032-9.237 45.248-46.165 45.248-68.587 0-18.539-17.088-93.291-36.843-136.213-20.992-41.451-50.091-41.451-67.499-41.451-6.997 0-15.573 1.92-49.173 10.219-4.629 1.131-10.091 2.475-15.381 3.755v-489.285l-3.584-7.104c-12.117-24-29.824-51.541-59.456-51.541h0.003zM256.96-55.536h509.76c1.323 1.835 3.115 4.523 5.333 8.491v517.275l9.92 9.749c9.131 11.499 21.077 16.896 38.123 16.896 6.997 0 15.573-1.941 49.131-10.219 11.989-2.987 29.824-7.36 35.456-8.363 1.259-0.021 2.496-0.043 3.712 0.021 0.576 0.853 1.408 2.176 2.368 4.117 15.381 33.493 28.288 92.48 30.037 106.453-0.704 2.24-2.325 5.504-3.797 7.616-27.755 8.896-58.368 16.448-88.043 23.787-15.787 3.883-30.997 7.637-44.907 11.392-21.632 5.824-33.792 10.965-44.587 15.488-10.453 4.395-19.584 8.213-38.293 13.035h-52.16c-31.659-57.6-119.467-77.803-160.405-77.803-58.645 0-125.419 24.256-155.541 77.803h-49.62c-83.733-20.672-136.597-35.2-220.501-63.936 0.085-0.853 0.171-1.685 0.256-2.325 0.363-3.243 0.555-5.973 0.555-7.979 0.555-7.808 10.731-72.427 23.211-104.491 2.155-1.323 6.699-2.603 9.984-3.008 5.312 1.088 18.048 4.309 27.605 6.741 32.683 8.299 46.933 11.669 56.299 11.669 21.013 0 33.024-11.861 38.144-16.917l9.877-9.749v-517.36c2.239-2.645 5.332-5.781 8.083-8.383v0zM447.637 157.557h-27.413c-8.832 0-16 7.168-16 16v192.853l-33.898-39.957c-2.901-3.413-7.104-5.461-11.563-5.632-4.459-0.363-8.811 1.536-11.988 4.715l-17.26 17.387c-5.888 5.952-6.229 15.424-0.725 21.76l67.264 77.547c3.029 3.52 7.445 5.525 12.075 5.525h39.509c8.832 0 16-7.168 16-16v-258.197c-0.001-8.832-7.169-16-16.001-16.001v0zM648.854 153.6h-27.393c-8.832 0-16 7.168-16 16v192.853l-33.92-39.979c-2.923-3.413-7.104-5.461-11.584-5.632-4.544-0.32-8.832 1.536-11.989 4.715l-17.259 17.388c-5.888 5.951-6.208 15.424-0.725 21.76l67.264 77.568c3.051 3.52 7.445 5.525 12.075 5.525h39.509c8.832 0 16-7.168 16-16v-258.198c0.022-8.832-7.146-16-15.978-16z" />
<glyph unicode="&#xe60e;" glyph-name="circle-up" d="M738.856 181.143l58.286 58.286q10.857 10.857 10.857 25.714t-10.857 25.714l-259.429 259.429q-10.857 10.857-25.714 10.857t-25.714-10.857l-259.429-259.429q-10.857-10.857-10.857-25.714t10.857-25.714l58.286-58.286q10.857-10.857 25.714-10.857t25.714 10.857l175.429 175.429 175.429-175.429q10.857-10.857 25.714-10.857t25.714 10.857zM950.856 320q0-119.429-58.857-220.286t-159.714-159.714-220.286-58.857-220.286 58.857-159.714 159.714-58.857 220.286 58.857 220.286 159.714 159.714 220.286 58.857 220.286-58.857 159.714-159.714 58.857-220.286z" />
<glyph unicode="&#xe60f;" glyph-name="tick-down" d="M829.15 355.463l-299.014-298.614q-7.658-7.658-18.133-7.658t-18.133 7.658l-299.014 298.614q-7.657 7.658-7.657 18.335t7.657 18.335l66.895 66.494q7.658 7.657 18.133 7.657t18.135-7.657l213.986-213.986 213.986 213.986q7.657 7.658 18.135 7.658t18.133-7.658l66.895-66.494q7.657-7.657 7.657-18.335t-7.657-18.335z" />
<glyph unicode="&#xe610;" glyph-name="comments" horiz-adv-x="1152" d="M1088-69.166c0-45.5 26.028-84.908 64-104.184v-15.938c-10.626-1.454-21.472-2.224-32.5-2.224-68.008 0-129.348 28.528-172.722 74.264-26.222-6.982-54.002-10.752-82.778-10.752-159.058 0-288 114.616-288 256s128.942 256 288 256c159.058 0 288-114.616 288-256 0-55.348-19.764-106.592-53.356-148.466-6.824-14.824-10.644-31.312-10.644-48.7zM512 832c278.458 0 504.992-180.614 511.836-405.52-49.182 21.92-103.586 33.52-159.836 33.52-95.56 0-185.816-33.446-254.138-94.178-70.846-62.972-109.862-147.434-109.862-237.822 0-44.672 9.544-87.888 27.736-127.788-5.228-0.126-10.468-0.212-15.736-0.212-27.156 0-53.81 1.734-79.824 5.044-109.978-109.978-241.25-129.7-368.176-132.596v26.916c68.536 33.578 128 94.74 128 164.636 0 9.754-0.758 19.33-2.164 28.696-115.796 76.264-189.836 192.754-189.836 323.304 0 229.75 229.23 416 512 416z" />
<glyph unicode="&#xe611;" glyph-name="search" d="M995.828-163.826c-37.566-37.564-98.45-37.564-136.016 0l-169.726 169.726c-69.776-44.764-152.26-71.434-241.318-71.434-247.83 0-448.768 200.908-448.768 448.768s200.938 448.766 448.768 448.766c247.862 0 448.768-200.904 448.768-448.766 0-89.028-26.704-171.542-71.436-241.352l169.728-169.726c37.562-37.564 37.562-98.418 0-135.982zM448.768 703.782c-177.022 0-320.548-143.494-320.548-320.546s143.526-320.548 320.548-320.548c177.052 0 320.548 143.496 320.548 320.548s-143.496 320.546-320.548 320.546z" />
<glyph unicode="&#xe612;" glyph-name="reload" d="M768 256c0-141.248-114.752-256-256-256s-256 114.752-256 256 114.752 256 256 256h128l0.736-128.64 192.384 192.64-192.384 192v-128h-128.736c-212 0-384-172-384-384s172-384 384-384 384 172 384 384h-128z" />
<glyph unicode="&#xe613;" glyph-name="hr" d="M0 352h128v-64h-128v64zM192 352h192v-64h-192v64zM448 352h128v-64h-128v64zM640 352h192v-64h-192v64zM896 352h128v-64h-128v64z" />
<glyph unicode="&#xe614;" glyph-name="header" d="M287.972 768v-383.905h448.562v383.905h159.292v-896.438h-159.292v384.22h-448.562v-384.221h-159.972v896.439h159.972z" />
<glyph unicode="&#xe616;" glyph-name="link" d="M449.42 212.076c-11.606 0-23.208 4.428-32.062 13.282-82.958 82.96-82.958 217.942 0 300.902l167.424 167.424c40.188 40.186 93.618 62.318 150.45 62.318s110.264-22.132 150.452-62.316c82.956-82.96 82.956-217.942 0-300.902l-76.532-76.532c-17.708-17.708-46.418-17.708-64.128 0-17.706 17.706-17.706 46.42 0 64.128l76.532 76.532c47.596 47.598 47.596 125.048 0 172.646-23.058 23.058-53.716 35.756-86.324 35.756s-63.264-12.698-86.324-35.758l-167.424-167.422c-47.598-47.598-47.598-125.050 0-172.648 17.708-17.706 17.706-46.42 0-64.128-8.85-8.852-20.458-13.282-32.060-13.282zM288.768-116c-56.832 0-110.266 22.132-150.45 62.316-82.958 82.96-82.958 217.942 0 300.902l76.532 76.532c17.708 17.706 46.42 17.706 64.128 0s17.708-46.42 0-64.128l-76.532-76.532c-47.598-47.598-47.598-125.050 0-172.648 23.056-23.056 53.714-35.754 86.322-35.754s63.264 12.698 86.326 35.758l167.424 167.422c47.596 47.598 47.596 125.050 0 172.648-17.708 17.708-17.706 46.42 0 64.128 17.706 17.706 46.42 17.706 64.128-0.002 82.956-82.958 82.956-217.94 0.002-300.9l-167.426-167.424c-40.19-40.188-93.62-62.318-150.454-62.318z" />
<glyph unicode="&#xe617;" glyph-name="quotes-left" d="M224.998 384c123.71 0 224-100.29 224-224s-100.288-224-224-224-224 100.288-224 224l-1.002 32c0 247.424 200.576 448 448 448v-128c-85.474 0-165.834-33.286-226.274-93.724-11.634-11.636-22.254-24.016-31.83-37.022 11.438 1.8 23.162 2.746 35.104 2.746zM801 384c123.71 0 224-100.29 224-224s-100.29-224-224-224-224 100.288-224 224l-1.002 32c0 247.424 200.576 448 448 448v-128c-85.474 0-165.834-33.286-226.274-93.724-11.636-11.636-22.254-24.016-31.832-37.022 11.44 1.8 23.159 2.746 35.105 2.746z" />
<glyph unicode="&#xe618;" glyph-name="image" d="M959.884 704c0.040-0.034 0.082-0.076 0.116-0.116v-767.771c-0.034-0.040-0.076-0.082-0.116-0.116h-895.77c-0.040 0.034-0.082 0.076-0.114 0.116v767.774c0.034 0.040 0.076 0.082 0.114 0.114h895.77zM960 768h-896c-35.2 0-64-28.8-64-64v-768c0-35.2 28.8-64 64-64h896c35.2 0 64 28.8 64 64v768c0 35.2-28.8 64-64 64v0zM832 544c0-53.020-42.98-96-96-96s-96 42.98-96 96 42.98 96 96 96 96-42.98 96-96zM896 0h-768v128l224 384 256-320h64l224 192z" />
<glyph unicode="&#xe61a;" glyph-name="bold" d="M707.88 347.348c37.498 44.542 60.12 102.008 60.12 164.652 0 141.16-114.842 256-256 256h-320v-896h384c141.158 0 256 114.842 256 256 0 92.956-49.798 174.496-124.12 219.348zM384 640h101.5c55.968 0 101.5-57.42 101.5-128s-45.532-128-101.5-128h-101.5v256zM543 0h-159v256h159c58.45 0 106-57.42 106-128s-47.55-128-106-128z" />
<glyph unicode="&#xe61b;" glyph-name="redo" d="M568 550.672v217.328l336-336-336-336v222.096c-390.906 9.164-374.14-265.812-274.628-446.096-245.636 265.476-193.472 690.874 274.628 678.672z" />
<glyph unicode="&#xe61c;" glyph-name="undo" d="M730.63-128c99.51 180.278 116.276 455.266-274.63 446.096v-222.096l-336 336 336 336v-217.324c468.090 12.198 520.25-413.186 274.63-678.676z" />
<glyph unicode="&#xe61d;" glyph-name="olist" d="M400 40h560v-112h-560zM400 376h560v-112h-560zM400 712h560v-112h-560zM232 768v-224h-56v168h-56v56zM176 307.749v-43.751h112v-56h-168v127.751l112 52.5v43.751h-112v56h168v-127.751zM288 152v-280h-168v56h112v56h-112v56h112v56h-112v56z" />
<glyph unicode="&#xe61e;" glyph-name="ulist" d="M400 712h560v-112h-560v112zM400 376h560v-112h-560v112zM400 40h560v-112h-560v112zM64 656c0 61.856 50.144 112 112 112s112-50.144 112-112c0-61.856-50.144-112-112-112s-112 50.144-112 112zM64 320c0 61.856 50.144 112 112 112s112-50.144 112-112c0-61.856-50.144-112-112-112s-112 50.144-112 112zM64-16c0 61.856 50.144 112 112 112s112-50.144 112-112c0-61.856-50.144-112-112-112s-112 50.144-112 112z" />
<glyph unicode="&#xe61f;" glyph-name="italic" d="M603 768h192l-27-64-320-768-27-64h-192l27 64 320 768z" />
<glyph unicode="&#xe620;" glyph-name="question" d="M512-192c-282.75 0-512 229.218-512 512 0 282.75 229.25 512 512 512s512-229.25 512-512c0-282.782-229.25-512-512-512zM512 704c-212.062 0-384-171.938-384-384s171.938-384 384-384 384 171.938 384 384-171.938 384-384 384zM512 576c-106.062 0-192-85.97-192-192h128c0 35.342 28.622 64 64 64s64-28.658 64-64-28.626-64-64-64c-2.45 0-10.216 0-32 0-17.688 0-32-14.344-32-32v-96h128v11.75c74.376 26.438 128 96.786 128 180.25 0 106.030-85.938 192-192 192zM512 128h-64v-64h128v64z" />
<glyph unicode="&#xe800;" glyph-name="add" d="M992 448h-352v352c0 17.672-14.328 32-32 32h-192c-17.672 0-32-14.328-32-32v-352h-352c-17.672 0-32-14.328-32-32v-192c0-17.672 14.328-32 32-32h352v-352c0-17.672 14.328-32 32-32h192c17.672 0 32 14.328 32 32v352h352c17.672 0 32 14.328 32 32v192c0 17.672-14.328 32-32 32z" />
<glyph unicode="&#xe801;" glyph-name="close" d="M1014.662 9.34c-0.004 0.004-0.008 0.008-0.012 0.010l-310.644 310.65 310.644 310.65c0.004 0.004 0.008 0.006 0.012 0.010 3.344 3.346 5.762 7.254 7.312 11.416 4.246 11.376 1.824 24.682-7.324 33.83l-146.746 146.746c-9.148 9.146-22.45 11.566-33.828 7.32-4.16-1.55-8.070-3.968-11.418-7.31 0-0.004-0.004-0.006-0.008-0.010l-310.648-310.652-310.648 310.65c-0.004 0.004-0.006 0.006-0.010 0.010-3.346 3.342-7.254 5.76-11.414 7.31-11.38 4.248-24.682 1.826-33.83-7.32l-146.748-146.748c-9.148-9.148-11.568-22.452-7.322-33.828 1.552-4.16 3.97-8.072 7.312-11.416 0.004-0.002 0.006-0.006 0.010-0.010l310.65-310.648-310.65-310.652c-0.002-0.004-0.006-0.006-0.008-0.010-3.342-3.346-5.76-7.254-7.314-11.414-4.248-11.376-1.826-24.682 7.322-33.83l146.748-146.746c9.15-9.148 22.452-11.568 33.83-7.322 4.16 1.552 8.070 3.97 11.416 7.312 0.002 0.004 0.006 0.006 0.010 0.010l310.648 310.65 310.648-310.65c0.004-0.002 0.008-0.006 0.012-0.008 3.348-3.344 7.254-5.762 11.414-7.314 11.378-4.246 24.684-1.826 33.828 7.322l146.746 146.748c9.148 9.148 11.57 22.454 7.324 33.83-1.552 4.16-3.97 8.068-7.314 11.414z" />
<glyph unicode="&#xe900;" glyph-name="volume-mute" d="M960 212.852v-84.852h-84.852l-107.148 107.148-107.148-107.148h-84.852v84.852l107.148 107.148-107.148 107.148v84.852h84.852l107.148-107.148 107.148 107.148h84.852v-84.852l-107.148-107.148 107.148-107.148zM416.006-128c-8.328 0-16.512 3.25-22.634 9.374l-246.626 246.626h-114.746c-17.672 0-32 14.326-32 32v320c0 17.672 14.328 32 32 32h114.746l246.626 246.628c9.154 9.154 22.916 11.89 34.874 6.936 11.958-4.952 19.754-16.622 19.754-29.564v-832c0-12.944-7.796-24.612-19.754-29.564-3.958-1.64-8.118-2.436-12.24-2.436z" />
<glyph unicode="&#xe901;" glyph-name="volume-high" horiz-adv-x="1088" d="M890.040-90.040c-12.286 0-24.566 4.686-33.942 14.056-18.744 18.746-18.744 49.136 0 67.882 87.638 87.642 135.904 204.16 135.904 328.1 0 123.938-48.266 240.458-135.904 328.098-18.744 18.746-18.744 49.138 0 67.882s49.138 18.744 67.882 0c105.77-105.772 164.022-246.4 164.022-395.98s-58.252-290.208-164.022-395.98c-9.372-9.372-21.656-14.058-33.94-14.058zM719.53 0.47c-12.286 0-24.566 4.686-33.942 14.056-18.744 18.744-18.744 49.136 0 67.882 131.006 131.006 131.006 344.17 0 475.176-18.744 18.746-18.744 49.138 0 67.882 18.744 18.742 49.138 18.744 67.882 0 81.594-81.59 126.53-190.074 126.53-305.466 0-115.39-44.936-223.876-126.53-305.47-9.372-9.374-21.656-14.060-33.94-14.060v0zM549.020 90.98c-12.286 0-24.568 4.686-33.942 14.058-18.746 18.746-18.746 49.134 0 67.88 81.1 81.1 81.1 213.058 0 294.156-18.746 18.746-18.746 49.138 0 67.882s49.136 18.744 67.882 0c118.53-118.53 118.53-311.392 0-429.922-9.372-9.368-21.656-14.054-33.94-14.054zM416.006-128c-8.328 0-16.512 3.25-22.634 9.374l-246.626 246.626h-114.746c-17.672 0-32 14.326-32 32v320c0 17.672 14.328 32 32 32h114.746l246.626 246.628c9.154 9.154 22.916 11.89 34.874 6.936 11.958-4.952 19.754-16.622 19.754-29.564v-832c0-12.944-7.796-24.612-19.754-29.564-3.958-1.64-8.118-2.436-12.24-2.436z" />
<glyph unicode="&#xe902;" glyph-name="bars" d="M0.003 371.2v-102.4c0-28.301 22.9-51.199 51.199-51.199h921.602c28.301 0 51.199 22.9 51.199 51.199v102.4c0 28.301-22.9 51.199-51.199 51.199h-921.602c-28.301 0-51.199-22.9-51.199-51.199zM0 678.398v-102.4c0-28.301 22.9-51.199 51.199-51.199h307.201c28.301 0 51.199 22.9 51.199 51.199v102.4c0 28.301-22.9 51.199-51.199 51.199h-307.201c-28.301 0-51.199-22.9-51.199-51.199zM0 64.002v-102.4c0-28.301 22.9-51.199 51.199-51.199h716.801c28.301 0 51.199 22.9 51.199 51.199v102.4c0 28.301-22.9 51.199-51.199 51.199h-716.801c-28.301 0-51.199-22.9-51.199-51.199z" />
<glyph unicode="&#xe903;" glyph-name="flag" d="M157.632 832h-64c-17.664 0-32-14.304-32-32v-960c0-17.696 14.336-32 32-32h64c17.664 0 32 14.304 32 32v960c0 17.696-14.304 32-32 32zM957.632 224v448c0 17.696-3.936 32-32 32-142.304-64-640 128-640 128-17.664 0-32-14.304-32-32v-480c0-17.696 14.336-32 32-32 0 0 352-114.272 640-96 54.88-18.272 32 14.304 32 32z" />
<glyph unicode="&#xe904;" glyph-name="shirt" horiz-adv-x="1158" d="M453.486 800.001l-33.605-23.745-383.639-189.965 139.081-240.849 64.453 23.745 6.785-512.227 332.439-16.962 332.439 16.962 6.785 512.227 61.061-23.745 142.474 240.849-383.639 189.965-36.998 23.745-122.289-9.678z" />
<glyph unicode="&#xe905;" glyph-name="ball" d="M368.5 360l143.5 103.998 143.5-103.998-54.5-168h-177.498zM512 768c247.5 0 448-200.502 448-448s-200.5-448-448-448-448 200.5-448 448 200.502 448 448 448zM821.5 92.999c47 64 74.5 142 74.5 227.001v1.5l-51-44.498-120 112 31.5 161.499 66.999-6c-47.5 65.5-115.5 115.999-194.5 141.002l26.5-61.998-143.5-79.498-143.5 79.498 26.5 61.998c-79-24.999-147-75.5-194.5-141.002l67.502 6 31.001-161.499-120-112-51 44.498v-1.5c0-85 27.501-163 74.502-227.001l15 66.001 163-20 69.501-149-58-34.501c37.498-12.5 78-19.5 120-19.5s82.5 7 120.002 19.5l-58 34.501 69.501 149 163 20z" />
<glyph unicode="&#xe906;" glyph-name="shoe" d="M617.728 336.231l-61.379 18.022-154.88-180.838 67.512-10.844 148.746 173.66zM519.117 365.159l-61.42 17.961-164.669-192.256 67.512-10.865 158.577 185.16zM716.186 307.149c-19.036 5.652-39.69 11.766-61.276 18.135l-144.988-169.298 67.523-10.865 138.742 162.028zM637.133 39.701c-10.875-0.584-20.224 8.253-20.982 19.784-0.492 9.564-1.034 20.152-1.249 23.101-0.471 6.124-5.407 10.701-5.407 10.701l-18.186 18.616c-46.090 0.737-89.6 3.564-126.147 8.53-146.872 19.948-190.792 7.987-312.842 10.291l-1.997 0.031-7.793-8.858c0 0-4.68-4.844-4.823-10.977-0.082-2.939-0.072-13.548-0.051-23.112-0.236-11.571-9.103-20.89-19.999-20.89s-19.763 9.318-19.917 20.89c0.010 9.564 0.031 20.173-0.041 23.112-0.154 6.144-4.823 10.977-4.823 10.977l-13.844 15.698c-53.524 10.701-59.464 29.798-59.464 29.798-10.476 33.556-16.425 71.823-16.425 112.445 0 38.799 5.386 75.438 14.981 107.868 18.657-14.52 41.564-27.361 69.652-36.536 41.943-13.691 105.871-22.17 118.436-2.55 2.191 3.43 7.639 14.828-1.853 16.005-54.282 4.7-140.943 15.718-132.352 104.325 0.584 6.031-0.492 10.639-3.011 13.978 2.806 3.011 5.693 5.878 8.632 8.561 0 0 7.004 5.53 11.971 5.458 7.086-0.092 16.384-0.932 17.265-14.203 0 0 0.922-72.151 119.276-74.004 37.007-0.584 59.965 8.11 76.206 19.804l-88.535 64.317c-13.312 9.677-16.271 28.324-6.595 41.636l33.618 46.264c9.677 13.322 28.314 16.271 41.626 6.595l151.552-110.111c1.004 0.031 1.997 0.041 3.011 0.041 30.331 0 55.654-13.036 61.614-30.392 26.552-0.215 49.132-10.414 58.040-24.709 2.396 0.174 4.854 0.256 7.322 0.256 21.719 0 40.888-6.687 52.224-16.855 24.945-0.666 46.131-10.168 55.286-23.47l2.386-0.727c2.918 0.256 5.939 0.399 8.98 0.399 23.265 0 43.602-7.68 54.487-19.087 1.352 0.051 2.714 0.082 4.096 0.082 22.211 0 41.759-6.994 52.951-17.562 48.425-14.326 92.058-26.911 122.716-35.154 125.481-33.659 129.208-103.24 41.656-149.146-14.94-7.823-34.857-14.746-58.378-20.726l-11.5-18.883c0 0-3.768-5.581-2.847-11.663 0.451-2.898 2.273-13.363 3.983-22.764 1.761-11.428-5.345-22.139-16.087-24.033-10.732-1.915-21.084 5.745-23.245 17.091-1.618 9.431-3.461 19.876-4.055 22.764-1.208 6.042-6.666 9.984-6.666 9.984l-16.026 12.8c-46.715-6.717-99.205-11.018-151.624-12.82l-13.292-16.804c0 0-4.413-5.059-4.239-11.223 0.061-2.949 0.635-13.537 1.157-23.081 0.42-11.53-7.956-21.309-18.831-21.862v0z" />
<glyph unicode="&#xe907;" glyph-name="card" d="M256 768h512c35.346 0 64-28.654 64-64v-768c0-35.346-28.654-64-64-64h-512c-35.346 0-64 28.654-64 64v768c0 35.346 28.654 64 64 64z" />
<glyph unicode="&#xe908;" glyph-name="penalty-miss" horiz-adv-x="731" d="M85.059 757.987h524.594v-440.035c0-11.311 9.169-20.48 20.48-20.48s20.48 9.169 20.48 20.48v460.515c0 11.311-9.169 20.48-20.48 20.48h-565.567c-11.316 0-20.487-9.177-20.48-20.493l0.288-460.515c0.007-11.311 9.182-20.474 20.493-20.467s20.474 9.182 20.467 20.493l-0.275 440.022zM79.648 754.301l57.85-83.483-1.823-253.651c0-5.655 4.585-10.24 10.24-10.24s10.24 4.585 10.24 10.24v259.483l-59.673 89.316c-3.221 4.648-9.601 5.805-14.249 2.584s-5.805-9.601-2.584-14.249zM615.132 754.301l-57.85-83.483 1.823-253.651c0-5.655-4.585-10.24-10.24-10.24s-10.24 4.585-10.24 10.24v259.483l59.673 89.316c3.221 4.648 9.601 5.805 14.249 2.584s5.805-9.601 2.584-14.249zM136.533 674.988l409.6-0.002v13.653l-409.6 0.002zM136.533 586.24h409.6v13.653h-409.6zM136.533 497.492h409.6v13.653h-409.6zM136.533 408.746h409.6v13.653h-409.6zM138.794 420.647l-68.267-61.44 9.134-10.148 68.267 61.44zM140.307 510.427l-68.267-34.133 6.106-12.212 68.267 34.133zM144.699 599.761l-68.267 13.654-2.678-13.388 68.267-13.654zM551.594 599.761l68.267 13.654 2.678-13.388-68.267-13.654zM556.335 510.427l68.267-34.133-6.106-12.212-68.267 34.133zM557.315 420.647l68.267-61.44-9.134-10.148-68.267 61.44zM211.627 408.746v273.067h-13.653v-273.067zM279.893 408.746v273.067h-13.653v-273.067zM348.16 408.746v390.615h-13.653v-390.615zM416.427 408.746v273.067h-13.653v-273.067zM484.693 408.746v273.067h-13.653v-273.067zM210.998 684.673l-40.96 88.748-12.397-5.722 40.96-88.748zM279.718 683.348l-20.481 88.748-13.304-3.070 20.481-88.748zM403.121 683.348l20.481 88.748 13.304-3.070-20.481-88.748zM471.644 683.82l27.306 88.748 13.050-4.015-27.306-88.748zM389.605 12.8l102.4 102.4-48.272 48.272-102.4-102.4-102.4 102.4-48.272-48.272 102.4-102.4-102.4-102.4 48.272-48.272 102.4 102.4 102.4-102.4 48.272 48.272-102.4 102.4z" />
<glyph unicode="&#xe909;" glyph-name="dots-vertical" d="M512.051 432.64c-62.208 0-112.691-50.432-112.691-112.64s50.483-112.64 112.691-112.64c62.208 0 112.589 50.432 112.589 112.64s-50.381 112.64-112.589 112.64zM512.051 565.76c62.208 0 112.589 50.483 112.589 112.64s-50.381 112.64-112.589 112.64c-62.208 0-112.691-50.432-112.691-112.64s50.483-112.64 112.691-112.64zM512.051 74.24c-62.208 0-112.691-50.432-112.691-112.64s50.483-112.64 112.691-112.64c62.208 0 112.589 50.432 112.589 112.64s-50.381 112.64-112.589 112.64z" />
<glyph unicode="&#xe90a;" glyph-name="hidden" d="M945.942 817.942c-18.746 18.744-49.136 18.744-67.882 0l-202.164-202.164c-51.938 15.754-106.948 24.222-163.896 24.222-223.318 0-416.882-130.042-512-320 41.122-82.124 100.648-153.040 173.022-207.096l-158.962-158.962c-18.746-18.746-18.746-49.136 0-67.882 9.372-9.374 21.656-14.060 33.94-14.060s24.568 4.686 33.942 14.058l864 864c18.744 18.746 18.744 49.138 0 67.884zM416 512c42.24 0 78.082-27.294 90.92-65.196l-121.724-121.724c-37.902 12.838-65.196 48.68-65.196 90.92 0 53.020 42.98 96 96 96zM110.116 320c38.292 60.524 89.274 111.924 149.434 150.296 3.918 2.5 7.876 4.922 11.862 7.3-9.962-27.328-15.412-56.822-15.412-87.596 0-54.89 17.286-105.738 46.7-147.418l-60.924-60.924c-52.446 36.842-97.202 83.882-131.66 138.342zM768 390c0 27.166-4.256 53.334-12.102 77.898l-321.808-321.808c24.568-7.842 50.742-12.090 77.91-12.090 141.382 0 256 114.618 256 256zM830.026 542.026l-69.362-69.362c1.264-0.786 2.53-1.568 3.786-2.368 60.162-38.374 111.142-89.774 149.434-150.296-38.292-60.522-89.274-111.922-149.436-150.296-75.594-48.218-162.89-73.704-252.448-73.704-38.664 0-76.902 4.76-113.962 14.040l-76.894-76.894c59.718-21.462 123.95-33.146 190.856-33.146 223.31 0 416.876 130.042 512 320-45.022 89.916-112.118 166.396-193.974 222.026z" />
<glyph unicode="&#xe946;" glyph-name="arrow-down" d="M512-97.106l-361.49 361.49h194.648v444.91h333.683v-444.91h194.648l-361.49-361.49z" />
</font>
</defs>
</svg>
